Начать новую тему Ответить на тему
Статистика раздачи
Размер: 282.01 МБ | Добавлен: 12 май 2019, 20:22 | Скачали: 0
Сидеров: 0  [0 байт/сек]    Личеров: 0  [0 байт/сек]
Пред. тема | След. тема 

Автор
Сообщение

СообщениеДобавлено: 12 май 2019, 20:22 

Ответить с цитатой 

Bill 'Ravi' Harris & The Prophets / Funky Sitar Man
Жанр: Funk
Носитель: CD
Страна-производитель диска (релиза): UK
Год издания: 1997
Издатель (лейбл): BBE
Номер по каталогу: BBECD002
Аудиокодек: FLAC (*.flac)
Тип рипа: tracks+.cue
Продолжительность: 45:18
Источник: собственный рип
Наличие сканов в содержимом раздачи: обложка
Треклист:
1. Path Of The Blazing Sarong 3:07
2. Gimme Some More / Hot Pants Medley 3:50
3. Soul Makossa 4:25
4. I Dream Of Gina 2:27
5. Ravi's Thing 4:23
6. Cissy Strutt 3:04
7. Look A Py Py 4:18
8. Lost Dragon Of The Sahara 3:57
9. Pass The Peas / Sex Machine Medley 3:33
10. Funky Sitar Man 3:03
11. Same Beat 3:48
12. Escapism 5:17
Код:
Exact Audio Copy V1.3 from 2. September 2016
EAC extraction logfile from 10. May 2019, 18:06
Bill 'Ravi' Harris & The Prophets / Funky Sitar Man
Used drive  : PIONEER BD-RW   BDR-202   Adapter: 1  ID: 0
Read mode               : Secure
Utilize accurate stream : Yes
Defeat audio cache      : Yes
Make use of C2 pointers : No
Read offset correction                      : 667
Overread into Lead-In and Lead-Out          : Yes
Fill up missing offset samples with silence : Yes
Delete leading and trailing silent blocks   : No
Null samples used in CRC calculations       : Yes
Used interface                              : Native Win32 interface for Win NT & 2000
Gap handling                                : Appended to previous track
Used output format              : User Defined Encoder
Selected bitrate                : 1024 kBit/s
Quality                         : High
Add ID3 tag                     : No
Command line compressor         : C:\Program Files (x86)\Exact Audio Copy\FLAC\FLAC.EXE
Additional command line options : -8 -V -T "ARTIST=%artist%" -T "TITLE=%title%" -T "ALBUM=%albumtitle%" -T "DATE=%year%" -T "TRACKNUMBER=%tracknr%" -T "GENRE=%genre%" -T "COMMENT=%comment%" -T "BAND=%albuminterpret%" -T "ALBUMARTIST=%albuminterpret%" -T "COMPOSER=%composer%" %haslyrics%--tag-from-file=LYRICS="%lyricsfile%"%haslyrics% -T "DISCNUMBER=%cdnumber%" -T "TOTALDISCS=%totalcds%" -T "TOTALTRACKS=%numtracks%" %hascover%--picture="%coverfile%"%hascover% %source% -o %dest%
TOC of the extracted CD
     Track |   Start  |  Length  | Start sector | End sector
    ---------------------------------------------------------
        1  |  0:00.33 |  3:07.35 |        33    |    14092
        2  |  3:07.68 |  3:50.57 |     14093    |    31399
        3  |  6:58.50 |  4:25.53 |     31400    |    51327
        4  | 11:24.28 |  2:27.22 |     51328    |    62374
        5  | 13:51.50 |  4:23.35 |     62375    |    82134
        6  | 18:15.10 |  3:04.53 |     82135    |    95987
        7  | 21:19.63 |  4:18.30 |     95988    |   115367
        8  | 25:38.18 |  3:57.35 |    115368    |   133177
        9  | 29:35.53 |  3:33.57 |    133178    |   149209
       10  | 33:09.35 |  3:03.00 |    149210    |   162934
       11  | 36:12.35 |  3:48.60 |    162935    |   180094
       12  | 40:01.20 |  5:17.50 |    180095    |   203919
Track  1
     Filename E:\Bill 'Ravi' Harris & The Prophets\Bill 'Ravi' Harris & The Prophets - [1997] - Funky Sitar Man\01 - Path Of The Blazing Sarong.wav
     Pre-gap length  0:00:02.33
     Peak level 99.6 %
     Extraction speed 3.8 X
     Track quality 100.0 %
     Test CRC 83CD1775
     Copy CRC 83CD1775
     Accurately ripped (confidence 2)  [D0972B86]  (AR v2)
     Copy OK
Track  2
     Filename E:\Bill 'Ravi' Harris & The Prophets\Bill 'Ravi' Harris & The Prophets - [1997] - Funky Sitar Man\02 - Gimme Some More , Hot Pants Medley.wav
     Pre-gap length  0:00:01.40
     Peak level 99.6 %
     Extraction speed 3.8 X
     Track quality 99.9 %
     Test CRC 10A1B4F0
     Copy CRC 10A1B4F0
     Accurately ripped (confidence 2)  [3D4B0A24]  (AR v2)
     Copy OK
Track  3
     Filename E:\Bill 'Ravi' Harris & The Prophets\Bill 'Ravi' Harris & The Prophets - [1997] - Funky Sitar Man\03 - Soul Makossa.wav
     Pre-gap length  0:00:01.35
     Peak level 99.6 %
     Extraction speed 4.7 X
     Track quality 100.0 %
     Test CRC 9CAD80F3
     Copy CRC 9CAD80F3
     Accurately ripped (confidence 2)  [A2C93682]  (AR v2)
     Copy OK
Track  4
     Filename E:\Bill 'Ravi' Harris & The Prophets\Bill 'Ravi' Harris & The Prophets - [1997] - Funky Sitar Man\04 - I Dream Of Gina.wav
     Pre-gap length  0:00:01.18
     Peak level 99.6 %
     Extraction speed 4.5 X
     Track quality 100.0 %
     Test CRC 6416085F
     Copy CRC 6416085F
     Accurately ripped (confidence 2)  [A74405FE]  (AR v2)
     Copy OK
Track  5
     Filename E:\Bill 'Ravi' Harris & The Prophets\Bill 'Ravi' Harris & The Prophets - [1997] - Funky Sitar Man\05 - Ravi's Thing.wav
     Pre-gap length  0:00:00.65
     Peak level 99.6 %
     Extraction speed 5.2 X
     Track quality 100.0 %
     Test CRC 61E0A213
     Copy CRC 61E0A213
     Accurately ripped (confidence 2)  [2B9C1842]  (AR v2)
     Copy OK
Track  6
     Filename E:\Bill 'Ravi' Harris & The Prophets\Bill 'Ravi' Harris & The Prophets - [1997] - Funky Sitar Man\06 - Cissy Strutt.wav
     Pre-gap length  0:00:01.55
     Peak level 99.6 %
     Extraction speed 5.2 X
     Track quality 100.0 %
     Test CRC 4E2B1AA0
     Copy CRC 4E2B1AA0
     Accurately ripped (confidence 2)  [27F5791E]  (AR v2)
     Copy OK
Track  7
     Filename E:\Bill 'Ravi' Harris & The Prophets\Bill 'Ravi' Harris & The Prophets - [1997] - Funky Sitar Man\07 - Look A Py Py.wav
     Pre-gap length  0:00:01.28
     Peak level 99.6 %
     Extraction speed 5.8 X
     Track quality 100.0 %
     Test CRC 224AF569
     Copy CRC 224AF569
     Accurately ripped (confidence 2)  [2D30F744]  (AR v2)
     Copy OK
Track  8
     Filename E:\Bill 'Ravi' Harris & The Prophets\Bill 'Ravi' Harris & The Prophets - [1997] - Funky Sitar Man\08 - Lost Dragon Of The Sahara.wav
     Pre-gap length  0:00:03.00
     Peak level 96.5 %
     Extraction speed 6.0 X
     Track quality 100.0 %
     Test CRC C617C67D
     Copy CRC C617C67D
     Accurately ripped (confidence 2)  [AAC8B674]  (AR v2)
     Copy OK
Track  9
     Filename E:\Bill 'Ravi' Harris & The Prophets\Bill 'Ravi' Harris & The Prophets - [1997] - Funky Sitar Man\09 - Pass The Peas , Sex Machine Medley.wav
     Pre-gap length  0:00:03.03
     Peak level 93.4 %
     Extraction speed 5.3 X
     Track quality 99.9 %
     Test CRC 8C9677EC
     Copy CRC 8C9677EC
     Accurately ripped (confidence 2)  [D09D8695]  (AR v2)
     Copy OK
Track 10
     Filename E:\Bill 'Ravi' Harris & The Prophets\Bill 'Ravi' Harris & The Prophets - [1997] - Funky Sitar Man\10 - Funky Sitar Man.wav
     Pre-gap length  0:00:01.40
     Peak level 96.3 %
     Extraction speed 6.1 X
     Track quality 100.0 %
     Test CRC DDDF5230
     Copy CRC DDDF5230
     Accurately ripped (confidence 2)  [A6B6807C]  (AR v2)
     Copy OK
Track 11
     Filename E:\Bill 'Ravi' Harris & The Prophets\Bill 'Ravi' Harris & The Prophets - [1997] - Funky Sitar Man\11 - Same Beat.wav
     Pre-gap length  0:00:02.65
     Peak level 94.1 %
     Extraction speed 6.5 X
     Track quality 100.0 %
     Test CRC DF95ABE9
     Copy CRC DF95ABE9
     Accurately ripped (confidence 2)  [3FBF153E]  (AR v2)
     Copy OK
Track 12
     Filename E:\Bill 'Ravi' Harris & The Prophets\Bill 'Ravi' Harris & The Prophets - [1997] - Funky Sitar Man\12 - Escapism.wav
     Pre-gap length  0:00:01.72
     Peak level 99.6 %
     Extraction speed 7.4 X
     Track quality 100.0 %
     Test CRC BE2851DA
     Copy CRC BE2851DA
     Accurately ripped (confidence 2)  [6105A3E7]  (AR v2)
     Copy OK
All tracks accurately ripped
No errors occurred
End of status report
---- CUETools DB Plugin V2.1.6
[CTDB TOCID: QhOQre0kPzG8MewzQ1QWvUGb0y8-] disk not present in database
Submit result: QhOQre0kPzG8MewzQ1QWvUGb0y8- has been uploaded
==== Log checksum 52532DC30943D476C00468A5528019F15933E7163106A9C00A836E29ED7D1250 ====
Код:
REM GENRE Jazz+Funk
REM DATE 1997
REM DISCID A40A9E0C
REM COMMENT "ExactAudioCopy v1.3"
PERFORMER "Bill 'Ravi' Harris & The Prophets"
TITLE "Funky Sitar Man"
FILE "01 - Path Of The Blazing Sarong.wav" WAVE
  TRACK 01 AUDIO
    TITLE "Path Of The Blazing Sarong"
    PERFORMER "Bill 'Ravi' Harris & The Prophets"
    PREGAP 00:00:33
    INDEX 01 00:00:00
  TRACK 02 AUDIO
    TITLE "Gimme Some More / Hot Pants Medley"
    PERFORMER "Bill 'Ravi' Harris & The Prophets"
    INDEX 00 03:05:70
FILE "02 - Gimme Some More , Hot Pants Medley.wav" WAVE
    INDEX 01 00:00:00
  TRACK 03 AUDIO
    TITLE "Soul Makossa"
    PERFORMER "Bill 'Ravi' Harris & The Prophets"
    INDEX 00 03:49:22
FILE "03 - Soul Makossa.wav" WAVE
    INDEX 01 00:00:00
  TRACK 04 AUDIO
    TITLE "I Dream Of Gina"
    PERFORMER "Bill 'Ravi' Harris & The Prophets"
    INDEX 00 04:24:35
FILE "04 - I Dream Of Gina.wav" WAVE
    INDEX 01 00:00:00
  TRACK 05 AUDIO
    TITLE "Ravi's Thing"
    PERFORMER "Bill 'Ravi' Harris & The Prophets"
    INDEX 00 02:26:32
FILE "05 - Ravi's Thing.wav" WAVE
    INDEX 01 00:00:00
  TRACK 06 AUDIO
    TITLE "Cissy Strutt"
    PERFORMER "Bill 'Ravi' Harris & The Prophets"
    INDEX 00 04:21:55
FILE "06 - Cissy Strutt.wav" WAVE
    INDEX 01 00:00:00
  TRACK 07 AUDIO
    TITLE "Look A Py Py"
    PERFORMER "Bill 'Ravi' Harris & The Prophets"
    INDEX 00 03:03:25
FILE "07 - Look A Py Py.wav" WAVE
    INDEX 01 00:00:00
  TRACK 08 AUDIO
    TITLE "Lost Dragon Of The Sahara"
    PERFORMER "Bill 'Ravi' Harris & The Prophets"
    INDEX 00 04:15:30
FILE "08 - Lost Dragon Of The Sahara.wav" WAVE
    INDEX 01 00:00:00
  TRACK 09 AUDIO
    TITLE "Pass The Peas / Sex Machine Medley"
    PERFORMER "Bill 'Ravi' Harris & The Prophets"
    INDEX 00 03:54:32
FILE "09 - Pass The Peas , Sex Machine Medley.wav" WAVE
    INDEX 01 00:00:00
  TRACK 10 AUDIO
    TITLE "Funky Sitar Man"
    PERFORMER "Bill 'Ravi' Harris & The Prophets"
    INDEX 00 03:32:17
FILE "10 - Funky Sitar Man.wav" WAVE
    INDEX 01 00:00:00
  TRACK 11 AUDIO
    TITLE "Same Beat"
    PERFORMER "Bill 'Ravi' Harris & The Prophets"
    INDEX 00 03:00:10
FILE "11 - Same Beat.wav" WAVE
    INDEX 01 00:00:00
  TRACK 12 AUDIO
    TITLE "Escapism"
    PERFORMER "Bill 'Ravi' Harris & The Prophets"
    INDEX 00 03:46:63
FILE "12 - Escapism.wav" WAVE
    INDEX 01 00:00:00
Правила, инструкции, FAQ!!!
Торрент  Добавлен [12 май 2019, 20:22] Скачать торрент Магнет ссылка
Скачать торрент
[ Размер 23.44 КБ / Просмотров 3 ]

Статус
Проверен 
 
Размер  282.01 МБ
Приватный: Нет (DHT включён)
.torrent скачан  0
Как залить торрент? | Как скачать Torrent? | Ошибка в торренте? Качайте магнет  


     Отправить личное сообщение
   
Страница 1 из 1
Показать сообщения за:  Поле сортировки  
Начать новую тему Ответить на тему


Сейчас этот форум просматривают: нет зарегистрированных пользователей и гости: 2


Вы не можете начинать темы
Вы не можете отвечать на сообщения
Вы не можете редактировать свои сообщения
Вы не можете удалять свои сообщения
Вы не можете добавлять вложения

Перейти:  
Ресурс не предоставляет электронные версии произведений, а занимается лишь коллекционированием и каталогизацией ссылок, присылаемых и публикуемых на форуме нашими читателями. Если вы являетесь правообладателем какого-либо представленного материала и не желаете чтобы ссылка на него находилась в нашем каталоге, свяжитесь с нами и мы незамедлительно удалим её. Файлы для обмена на трекере предоставлены пользователями сайта, и администрация не несёт ответственности за их содержание. Просьба не заливать файлы, защищенные авторскими правами, а также файлы нелегального содержания!