Статистика раздачи
Размер: 2.01 ГБ | Добавлен: 11 май 2019, 14:53 | Скачали: 0
Сидеров: 68  [0 байт/сек]    Личеров: 7  [0 байт/сек]
Пред. тема | След. тема 

Автор
Сообщение

СообщениеДобавлено: 11 май 2019, 14:54 

Зарегистрированные пользователи
Зарегистрированные пользователи

Стаж: 2 года 2 месяца 10 дней
Раздал: 0 байт
Скачал: 0 байт
Ратио: Inf.
Торренты: 1
Плохой коп / Akjilgyeongchal / Bad Police

Производство: Корея Южная / Dice Film, Generation Blue Films, Sega Sammy Entertainment
Жанр: Боевик, криминал, детектив, триллер
Режиссер: Ли Джон-бом
Актеры: Ли Сон-гюн, Чон Со-ни, Пак Хэ-джун, Сон Ён-чхан, Пак Пён-ын, Им Хён-гук, Ким Мин-джэ, Квон Хан-соль, Ли Ю-ён, Чон Га-рам[hr]

Беспринципный полицейский Чо Пиль-хо не гнушается грязными способами заработка — берёт взятки и даже работает в паре с грабителем. А когда к нему вплотную подбираются детективы из отдела внутренних расследований, Пиль-хо вынуждает своего криминального напарника обчистить полицейский склад вещдоков. Но во время ограбления происходит мощный взрыв и пожар — грабитель погибает, а сам Пиль-хо теряет сознание на месте преступления. Очнувшись в больнице, он узнаёт, что начальник в бешенстве, а отдел внутренних расследований радостно потирает руки, и теперь плохому копу придётся очень сильно постараться, чтобы выкрутиться из этой ситуации.

Дата мировой премьеры: 20 марта 2019
Продолжительность: 02:07:32
Качество видео: WEB-DLRip
Перевод: Многоголосый закадровый, профессиональный (Синема УС)
Субтитры: Отсутствуют
Видео: XviD, 720x304, ~1861 Kbps
Аудио: AC-3, 2 ch, 384 Kbps
Общее
Полное имя : C:\_\Плохой коп\Bad Police 2019 WEB-DLRip.avi
Формат : AVI
Формат/Информация : Audio Video Interleave
Профиль формата : OpenDML
Размер файла : 2,01 Гбайт
Продолжительность : 2 ч. 7 м.
Общий поток : 2256 Кбит/сек
Видео
Идентификатор : 0
Формат : MPEG-4 Visual
Профиль формата : Advanced Simple@L5
Параметр BVOP формата : 2
Параметр QPel формата : Нет
Параметр GMC формата : Без точки перехода
Параметр матрицы формата : Выборочная
Идентификатор кодека : XVID
Идентификатор кодека/Подсказка : XviD
Продолжительность : 2 ч. 7 м.
Битрейт : 1861 Кбит/сек
Ширина : 720 пикселей
Высота : 304 пикселя
Соотношение сторон : 2,35:1
Частота кадров : 23,976 (24000/1001) кадра/сек
Цветовое пространство : YUV
Субдискретизация насыщенности : 4:2:0
Битовая глубина : 8 бит
Тип развёртки : Прогрессивная
Метод сжатия : С потерями
Бит/(Пиксели*Кадры) : 0.355
Размер потока : 1,66 Гбайт (83%)
Библиотека кодирования : XviD 1.2.1 (UTC 2008-12-04)
Аудио
Идентификатор : 1
Формат : AC-3
Формат/Информация : Audio Coding 3
Расширение режима : CM (complete main)
Параметр Endianness формата : Big
Идентификатор кодека : 2000
Продолжительность : 2 ч. 7 м.
Вид битрейта : Постоянный
Битрейт : 384 Кбит/сек
Каналы : 2 канала
Расположение каналов : Front: L R
Частота : 48,0 КГц
Частота кадров : 31,250 кадров/сек (1536 spf)
Метод сжатия : С потерями
Размер потока : 350 Мбайт (17%)
Выравнивание : Соединение по промежуткам
Продолжительность промежутка : 32 мс. (0,77 видеокадр)


Скриншоты:
Правила, инструкции, FAQ!!!
Торрент  Добавлен [11 май 2019, 14:53] Скачать торрент Магнет ссылка
Скачать торрент
[ Размер 10.54 КБ / Просмотров 9 ]

Статус
Проверен Admin (11 май 2019, 19:56)
 
Размер  2.01 ГБ
Приватный: Нет (DHT включён)
.torrent скачан  0
Как залить торрент? | Как скачать Torrent? | Ошибка в торренте? Качайте магнет  


     Отправить личное сообщение
   
Страница 1 из 1


Сейчас этот форум просматривают: нет зарегистрированных пользователей и гости: 0


Вы не можете начинать темы
Вы не можете отвечать на сообщения
Вы не можете редактировать свои сообщения
Вы не можете удалять свои сообщения
Вы не можете добавлять вложения

Перейти:  
Ресурс не предоставляет электронные версии произведений, а занимается лишь коллекционированием и каталогизацией ссылок, присылаемых и публикуемых на форуме нашими читателями. Если вы являетесь правообладателем какого-либо представленного материала и не желаете чтобы ссылка на него находилась в нашем каталоге, свяжитесь с нами и мы незамедлительно удалим её. Файлы для обмена на трекере предоставлены пользователями сайта, и администрация не несёт ответственности за их содержание. Просьба не заливать файлы, защищенные авторскими правами, а также файлы нелегального содержания!