Статистика раздачи
Размер: 885.18 МБ | Добавлен: 11 июн 2018, 06:32 | Скачали: 0
Сидеров: 23  [0 байт/сек]    Личеров: 7  [0 байт/сек]
Пред. тема | След. тема 

Автор
Сообщение

СообщениеДобавлено: 11 июн 2018, 06:32 

Пляжные крысы / Береговые крысы / Пляжные развлечения / Beach Rats
Страна: США
Год выпуска: 2017
Жанр: драма, криминал, гей-тема
Продолжительность: 01:38:13
Перевод 1: Любительский двухголосый закадровый (RecentFilms)
Перевод 2: Одноголосый закадровый (Анатолий Ашмарин)
Режиссёр: Элиза Хиттман / Eliza Hittman
В ролях: Харрис Дикинсон , Мэделин Вайнштейн, Кейт Ходж, Нил Хафф, Николь Флюс , Фрэнк Хакай , Давид Иванов, Антон Сельянинов, Харрисон Шихан, Дуглас Эверетт Дэвис
Описание: Главный герой фильма - подросток Фрэнки из Бруклина в Нью-Йорке. Он живёт с матерью, младшей сестрой и смертельно больным раком отцом. Жизнь Фрэнки похожа на "день сурка" - он шатается по пляжу со своими друзьями, тусуется в барах, курит травку, не прочь что-то украсть. У него есть девушка, к которой он испытывает некие чувства. В то же время он зависает на сайтах с геями-эксгибиционистами и встречается со старшими мужчинами (иногда и из меркантильных соображений), к чему испытывает непреодолимое влечение. Фрэнки не может определиться ни со своими целями в жизни, ни со своей сексуальной идентичностью. И, в принципе, его это устраивает и он особо не напрягается, чтобы что-то изменить. Куда же приведёт героя такой образ жизни ?
Пляжными крысами (beach rats) называют людей, которые постоянно шатаются по пляжу, катаются на скейтборде и т п.
Награды:
Independent Film Festival of Boston, Бостон, США, 2017 :
Победитель - Гран-при жюри
Фестиваль драматических фильмов "Сандэнс" (Sundance Film Festival), Парк-Сити, Юта, США, 2017:
Победитель - Премия за лучшую режиссуру (Элиза Хиттман)
London Critics Circle Film Awards, Лондон, Великобритания, 2018 :
Победитель - Открытие года (актёр Харрис Дикинсон)
Hamburg Film Festival, Гамбург, Германия, 2017 :
Победитель - Премия "Молодой талант" (Элиза Хитман)
Montclair Film Festival, Монклер, США, 2017 :
Победитель - Приз "Будущее сейчас" (Элиза Хиттман)
QCinema International Film Festival, Кесон-Сити, Филиппины, 2017 :
Победитель - Премия "NETPAC" (Элиза Хиттман)
Фестиваль "Аутфест" (Gay and Lesbian Film Festival «Outfest»), Лос-Анджелес, США, 2017 :
Победитель - Лучший сценарий (Элиза Хиттман)
Сэмпл: https://www.sendspace.com/file/k4j18m
Качество видео: HDRip
Формат видео: AVI
Видео: XviD; 688x384 (16:9); 23,976 кадров/сек; 857 Кбит/сек
Аудио 1: MP3; 48 КГц; 128 Кбит/сек; 2 канала; DVO (Русский, RecentFilms)
Аудио 2: MP3; 48 КГц; 128 Кбит/сек; 2 канала; VO (Русский, Анатолий Ашмарин)
Аудио 3: MP3; 48 КГц; 128 Кбит/сек; 2 канала; Оригинал (Английский)
Субтитры 1: русские (SRT, отдельным файлом)
Субтитры 2: английские (SRT, отдельным файлом)
Код:
Общее
Формат : AVI
Формат/Информация : Audio Video Interleave
Размер файла : 885 Мбайт
Продолжительность : 1 ч. 38 м.
Общий поток : 1260 Кбит/сек
Программа кодирования : VirtualDubModRus 1.5.10.2 (build 2542/release)
Библиотека кодирования : VirtualDubMod build 2542/release
Видео
Идентификатор : 0
Формат : MPEG-4 Visual
Профиль формата : Advanced Simple@L5
Настройки формата : BVOP1 / Custom Matrix
Параметр BVOP формата : 1
Параметр QPel формата : Нет
Параметр GMC формата : Без точки перехода
Параметр матрицы формата : Выборочная
Идентификатор кодека : XVID
Идентификатор кодека/Подсказка : XviD
Продолжительность : 1 ч. 38 м.
Битрейт : 857 Кбит/сек
Ширина : 688 пикселей
Высота : 384 пикселя
Соотношение сторон : 16:9
Частота кадров : 23,976 (24000/1001) кадра/сек
Частота кадров в оригинале : 23,976 (23976/1000) кадра/сек
Цветовое пространство : YUV
Субдискретизация насыщенности : 4:2:0
Битовая глубина : 8 бит
Тип развёртки : Прогрессивная
Метод сжатия : С потерями
Бит/(Пиксели*Кадры) : 0.135
Размер потока : 602 Мбайт (68%)
Библиотека кодирования : XviD 73
Аудио #1
Идентификатор : 1
Формат : MPEG Audio
Версия формата : Version 1
Профиль формата : Layer 3
Настройки формата : Joint stereo
Идентификатор кодека : 55
Идентификатор кодека/Подсказка : MP3
Продолжительность : 1 ч. 38 м.
Вид битрейта : Постоянный
Битрейт : 128 Кбит/сек
Каналы : 2 канала
Частота : 48,0 КГц
Метод сжатия : С потерями
Размер потока : 89,9 Мбайт (10%)
Выравнивание : Соединение по промежуткам
Продолжительность промежутка : 42 мс. (1,00 видеокадр)
Время предзагрузки промежутка : 504 мс.
Библиотека кодирования : LAME3.99.5
Аудио #2
Идентификатор : 2
Формат : MPEG Audio
Версия формата : Version 1
Профиль формата : Layer 3
Настройки формата : Joint stereo
Идентификатор кодека : 55
Идентификатор кодека/Подсказка : MP3
Продолжительность : 1 ч. 38 м.
Вид битрейта : Постоянный
Битрейт : 128 Кбит/сек
Каналы : 2 канала
Частота : 48,0 КГц
Частота кадров : 41,667 кадра/сек (1152 SPF)
Метод сжатия : С потерями
Размер потока : 89,9 Мбайт (10%)
Выравнивание : Соединение по промежуткам
Продолжительность промежутка : 42 мс. (1,00 видеокадр)
Время предзагрузки промежутка : 504 мс.
Аудио #3
Идентификатор : 3
Формат : MPEG Audio
Версия формата : Version 1
Профиль формата : Layer 3
Настройки формата : Joint stereo
Идентификатор кодека : 55
Идентификатор кодека/Подсказка : MP3
Продолжительность : 1 ч. 38 м.
Вид битрейта : Постоянный
Битрейт : 128 Кбит/сек
Каналы : 2 канала
Частота : 48,0 КГц
Частота кадров : 41,667 кадра/сек (1152 SPF)
Метод сжатия : С потерями
Размер потока : 89,9 Мбайт (10%)
Выравнивание : Соединение по промежуткам
Продолжительность промежутка : 42 мс. (1,00 видеокадр)
Время предзагрузки промежутка : 504 мс.
Библиотека кодирования : LAME3.98.4
Правила, инструкции, FAQ!!!
Торрент  Добавлен [11 июн 2018, 06:32] Скачать торрент Магнет ссылка
Скачать торрент
[ Размер 17.92 КБ / Просмотров 67 ]

Статус
Проверен 
 
Размер  885.18 МБ
Приватный: Нет (DHT включён)
.torrent скачан  0
Как залить торрент? | Как скачать Torrent? | Ошибка в торренте? Качайте магнет  


     Отправить личное сообщение
   
Страница 1 из 1


Сейчас этот форум просматривают: нет зарегистрированных пользователей и гости: 1


Вы не можете начинать темы
Вы не можете отвечать на сообщения
Вы не можете редактировать свои сообщения
Вы не можете удалять свои сообщения
Вы не можете добавлять вложения

Перейти:  
Ресурс не предоставляет электронные версии произведений, а занимается лишь коллекционированием и каталогизацией ссылок, присылаемых и публикуемых на форуме нашими читателями. Если вы являетесь правообладателем какого-либо представленного материала и не желаете чтобы ссылка на него находилась в нашем каталоге, свяжитесь с нами и мы незамедлительно удалим её. Файлы для обмена на трекере предоставлены пользователями сайта, и администрация не несёт ответственности за их содержание. Просьба не заливать файлы, защищенные авторскими правами, а также файлы нелегального содержания!