Статистика раздачи
Размер: 13.55 ГБ | Добавлен: 19 янв 2018, 21:54 | Скачали: 1
Сидеров: 5  [0 байт/сек]    Личеров: 0  [0 байт/сек]
Пред. тема | След. тема 

Автор
Сообщение

СообщениеДобавлено: 19 янв 2018, 21:54 

Название: Альпы с высоты птичьего полёта
Оригинальное: Die Alpen: Unsere Berge von oben
Год выхода: 2013
Жанр: Документальный, путешествия, природа, видовой
Режиссёры: Петер Барделе, Себастьян Линдеманн

О фильме:
Захватывающее путешествие в сердце Европы. Вид сверху открывает абсолютно новую перспективу на величественный и многообразный мир Альп. Серпантин превращается в полотна абстракциониста, горные хребты напоминают лунные ландшафты, а альпийские деревушки кажутся россыпью кукольных домиков. Доломитовые Альпы, Монблан, Альгёй, ледник Алеч предстанут во всём своём великолепии. Особые камеры для аэросъёмки с поразительной точностью покажут прекраснейшие вершины, живописные долины и ландшафты. Новейшие технологии позволят зрителю практически прикоснуться к Альпам и заглянуть в те уголки, в которые не могут забраться альпинисты и путешественники.


Страна: Германия
Студия: Vidicom Media Productions, Alamode Film
Продолжительность: 01:33:55
Перевод: Субтитры


Кодек: MPEG-4 AVC
Качество: BDRemux 1080p
Видео: 1920х1080, 19,6 Мбит/с, 24 кадр/с
Звук: DTS-HD MA, 6 каналов, 1026 Кбит/с

Общее
Уникальный идентификатор : 58412644866598651554292353678686898424 (0x2BF1DDBE7E3B8A459D127D34743148F8)
Полное имя : C:UsersDVideosАЛЬПЫ С ВЫСОТЫ ПТИЧЬЕГО ПОЛЁТА.mkv
Формат : Matroska
Версия формата : Version 4 / Version 2
Размер файла : 13,6 Гбайт
Продолжительность : 1 ч. 33 м.
Режим общего битрейта : Переменный
Общий поток : 20,7 Мбит/сек
Дата кодирования : UTC 2018-01-19 16:20:38
Программа кодирования : mkvmerge v20.0.0 ('I Am The Sun') 64-bit
Библиотека кодирования : libebml v1.3.5 + libmatroska v1.4.8

Видео
Идентификатор : 1
Формат : AVC
Формат/Информация : Advanced Video Codec
Профиль формата : High@L4.1
Настройки формата : CABAC / 2 Ref Frames
Параметр CABAC формата : Да
Параметр RefFrames формата : 2 кадра
Идентификатор кодека : V_MPEG4/ISO/AVC
Продолжительность : 1 ч. 33 м.
Вид битрейта : Переменный
Битрейт : 19,6 Мбит/сек
Максимальный битрейт : 25,1 Мбит/сек
Ширина : 1920 пикселей
Высота : 1080 пикселей
Соотношение сторон : 16:9
Режим частоты кадров : Постоянный
Частота кадров : 24,000 кадра/сек
Цветовое пространство : YUV
Субдискретизация насыщенности : 4:2:0
Битовая глубина : 8 бит
Тип развёртки : Прогрессивная
Бит/(Пиксели*Кадры) : 0.394
Размер потока : 12,9 Гбайт (95%)
Default : Да
Forced : Нет

Аудио
Идентификатор : 3
Формат : DTS
Формат/Информация : Digital Theater Systems
Идентификатор кодека : A_DTS
Продолжительность : 1 ч. 33 м.
Вид битрейта : Постоянный
Битрейт : 1026 Кбит/сек
Каналы : 6 каналов
Расположение каналов : Front: L C R, Side: L R, LFE
Частота : 48,0 КГц
Частота кадров : 93,750 кадра/сек (512 SPF)
Битовая глубина : 16 бит
Метод сжатия : С потерями
Размер потока : 689 Мбайт (5%)
Язык : German
Default : Да
Forced : Нет

Текст
Идентификатор : 2
Формат : PGS
Режим смешивания : zlib
Идентификатор кодека : S_HDMV/PGS
Идентификатор кодека/Информация : Picture based subtitle format used on BDs/HD-DVDs
Продолжительность : 1 ч. 31 м.
Битрейт : 33,3 Кбит/сек
ElementCount : 1290
Размер потока : 21,9 Мбайт (0%)
Язык : Russian
Default : Да
Forced : Да
Правила, инструкции, FAQ!!!
Торрент  Добавлен [19 янв 2018, 21:54] Скачать торрент Магнет ссылка
Скачать торрент
[ Размер 34.9 КБ / Просмотров 94 ]

Статус
Проверен 
 
Размер  13.55 ГБ
Приватный: Нет (DHT включён)
.torrent скачан  1
Как залить торрент? | Как скачать Torrent? | Ошибка в торренте? Качайте магнет  


     Отправить личное сообщение
   
Страница 1 из 1


Сейчас этот форум просматривают: нет зарегистрированных пользователей и гости: 0


Вы не можете начинать темы
Вы не можете отвечать на сообщения
Вы не можете редактировать свои сообщения
Вы не можете удалять свои сообщения
Вы не можете добавлять вложения

Перейти:  
Ресурс не предоставляет электронные версии произведений, а занимается лишь коллекционированием и каталогизацией ссылок, присылаемых и публикуемых на форуме нашими читателями. Если вы являетесь правообладателем какого-либо представленного материала и не желаете чтобы ссылка на него находилась в нашем каталоге, свяжитесь с нами и мы незамедлительно удалим её. Файлы для обмена на трекере предоставлены пользователями сайта, и администрация не несёт ответственности за их содержание. Просьба не заливать файлы, защищенные авторскими правами, а также файлы нелегального содержания!